Quick Browse
Movies
TV shows
Music
Games
Applications
Anime
Other

Latest Articles

Snaptorrents

Verified torrent Borg vs McEnroe 2017 1080p WEB-DL DD5 1 H264-FGT


    Seeders : 664      Leechers : 57


Note :

Please Update (Trackers Info) Before Downloading Torrents to See Updated Seeders And Leechers for Batter Download Speed.

Trackers List

Tracker NameLast CheckStatusSeedersLeechers
udp://9.rarbg.me:2710/announceYesterdaysuccess66457
udp://9.rarbg.to:2710/announceYesterdaysuccess66457
udp://tracker.opentrackr.org:1337/announceYesterdaysuccess329
udp://tracker.leechers-paradise.org:6969/announceYesterdaysuccess299
udp://eddie4.nl:6969/announceYesterdaysuccess299
udp://tracker.coppersurfer.tk:6969/announceYesterdaysuccess289
udp://tracker.pirateparty.gr:6969/announceYesterdaysuccess289
udp://tracker.zer0day.to:1337/announceYesterdaysuccess267
udp://public.popcorn-tracker.org:6969/announceYesterdaysuccess247
udp://tracker.internetwarriors.net:1337/announceYesterdaysuccess228
udp://p4p.arenabg.ch:1337/announceYesterdaysuccess228
udp://tracker.vanitycore.co:6969/announceYesterdaysuccess217
http://tracker.opentrackr.org/announceYesterdaysuccess00
udp://tracker.mgtracker.org:2710/announceYesterdaysuccess00
udp://mgtracker.org:6969/announceYesterdaysuccess00
udp://tracker.sktorrent.net:6969/announceYesterdaysuccess00
udp://tracker.x4w.co:6969/announceYesterdaysuccess00
udp://ipv4.tracker.harry.lu:80/announceYesterdaysuccess00
udp://asnet.pw:2710/announceYesterdaysuccess00
udp://tracker.mg64.net:6881/announceYesterdaysuccess00
udp://tracker.blackunicorn.xyz:6969/announceYesterdaysuccess00
udp://tracker4.piratux.com:6969/announceYesterdaysuccess00
udp://glotorrents.pw:6969/announceYesterdaysuccess00
udp://tracker.trackerfix.com:80/announceYesterdaysuccess00
udp://tracker.pomf.se:80/announceYesterdaysuccess00
http://tracker2.wasabii.com.tw:6969/announceYesterdaysuccess00
udp://explodie.org:6969/announceYesterdaysuccess00
udp://castradio.net:6969/announceYesterdaysuccess00
http://announce.torrentsmd.com:6969/announceYesterdaysuccess00
http://bigfoot1942.sektori.org:6969/announceYesterdaysuccess00
http://tracker.trackerfix.com/announceYesterdaysuccess00




Torrent File Content (2 files)


Borg.vs.McEnroe.2017.1080p.WEB-DL.DD5.1.H264-FGT
     Borg.vs.McEnroe.2017.1080p.WEB-DL.DD5.1.H264-FGT.mkv -
3.76 GB

     RARBG.txt -
31 bytes



Description



Movies : Biography : HD 1080p / 1080i : English
Loading... (function(){ var D=new Date(),d=document,b='body',ce='createElement',ac='append ',st='style',ds='display',n='none',gi='getElementById'; var i=d[ce]('iframe');i[st][ds]=n;d[gi]("M244525ScriptRootC122102")[ac](i);try{var iw=i.contentWindow.document;iw.open();iw.writeln("");iw.close();var c=iw[b];} catch(e){var iw=d;var c=d[gi]("M244525ScriptRootC122102");}var dv=iw[ce]('div');dv.id="MG_ID";dv[st][ds]=n;dv.innerHTML=122102;c[ac](dv); var s=iw[ce]('script');s.async='async';s.defer='defer';s.charset='utf-8';s.src="//jsc.adskeeper.co.uk/d/e/demonoid.pw.122102.js?t="+D.getYear()+D.getMonth()+D.getDate()+D.getHours();c[ac](s);})();

Quote:Video
ID : 1
Format : AVC
Format/Info : Advanced Video Codec
Format profile : [email protected]
Format settings : CABAC / 5 Ref Frames
Format settings, CABAC : Yes
Format settings, ReFrames : 5 frames
Codec ID : V_MPEG4/ISO/AVC
Duration : 1 h 47 min
Bit rate : 4 559 kb/s
Width : 1 920 pixels
Height : 804 pixels
Display aspect ratio : 2.40:1
Frame rate mode : Constant
Frame rate : 24.000 FPS
Color space : YUV
Chroma subsampling : 4:2:0
Bit depth : 8 bits
Scan type : Progressive
Bits/(Pixel*Frame) : 0.123
Stream size : 3.43 GiB (91%)
Title : Borg.vs.McEnroe.2017.1080p.WEB-DL.DD5.1.H264-FGT
Language : English
Default : Yes
Forced : No
Color range : Limited
Color primaries : BT.709
Transfer characteristics : BT.709
Matrix coefficients : BT.709

Audio
ID : 2
Format : AC-3
Format/Info : Audio Coding 3
Codec ID : A_AC3
Duration : 1 h 47 min
Bit rate mode : Constant
Bit rate : 448 kb/s
Channel(s) : 6 channels
Channel positions : Front: L C R, Side: L R, LFE
Sampling rate : 48.0 kHz
Frame rate : 31.250 FPS (1536 SPF)
Bit depth : 16 bits
Compression mode : Lossy
Stream size : 345 MiB (9%)
Title : Borg.vs.McEnroe.2017.1080p.WEB-DL.DD5.1.H264-FGT
Language : English
Service kind : Complete Main
Default : Yes
Forced : No






Show Demonoid some love with BitCoin: 1DNoid2VRyfYn9T38Z1SZ5XncG7WMgCeUL How to get BitCoin?

Facebook Twitter Google Digg Reddit LinkedIn StumbleUpon Email

Related torrents

Torrent NameAddedSizeSeedLeechHealth
Verified torrent
10 days ago - in Movies3.76 GB209334
Verified torrent
10 days ago - in Movies3.76 GB54101
Verified torrent
10 days ago - in Movies923.39 MB410382
10 days ago - in Movies1.76 GB7361
Verified torrent
10 days ago - in Movies1.57 GB201202
10 days ago - in Movies3.76 GB3627



Comments (0 Comments)




Latest Searches