Quick Browse
Movies
TV shows
Music
Games
Applications
Anime
Other

Latest Articles

Snaptorrents

Verified torrent Renegades 2017 1080p WEB-DL DD5 1 H264-FGT


    Seeders : 52      Leechers : 11


Note :

Please Update (Trackers Info) Before Downloading Torrents to See Updated Seeders And Leechers for Batter Download Speed.

Trackers List

Tracker NameLast CheckStatusSeedersLeechers
udp://tracker.opentrackr.org:1337/announceYesterdaysuccess5211
http://tracker.opentrackr.org/announceYesterdaysuccess5211
udp://eddie4.nl:6969/announceYesterdaysuccess487
udp://tracker.pirateparty.gr:6969/announceYesterdaysuccess486
udp://tracker.coppersurfer.tk:6969/announceYesterdaysuccess486
udp://tracker.leechers-paradise.org:6969/announceYesterdaysuccess487
udp://tracker.internetwarriors.net:1337/announceYesterdaysuccess465
udp://tracker.zer0day.to:1337/announceYesterdaysuccess445
udp://p4p.arenabg.ch:1337/announceYesterdaysuccess396
udp://public.popcorn-tracker.org:6969/announceYesterdaysuccess387
udp://tracker.vanitycore.co:6969/announceYesterdaysuccess00
udp://tracker.blackunicorn.xyz:6969/announceYesterdaysuccess00
udp://tracker.mgtracker.org:2710/announceYesterdaysuccess00
udp://mgtracker.org:6969/announceYesterdaysuccess00
udp://tracker.sktorrent.net:6969/announceYesterdaysuccess00
udp://tracker.x4w.co:6969/announceYesterdaysuccess00
udp://tracker.mg64.net:6881/announceYesterdaysuccess00
udp://asnet.pw:2710/announceYesterdaysuccess00
udp://9.rarbg.to:2710/announceYesterdaysuccess00
udp://ipv4.tracker.harry.lu:80/announceYesterdaysuccess00
udp://tracker4.piratux.com:6969/announceYesterdaysuccess00
udp://glotorrents.pw:6969/announceYesterdaysuccess00
udp://tracker.trackerfix.com:80/announceYesterdaysuccess00
udp://tracker.pomf.se:80/announceYesterdaysuccess00
http://tracker2.wasabii.com.tw:6969/announceYesterdaysuccess00
udp://explodie.org:6969/announceYesterdaysuccess00
udp://castradio.net:6969/announceYesterdaysuccess00
http://announce.torrentsmd.com:6969/announceYesterdaysuccess00
http://bigfoot1942.sektori.org:6969/announceYesterdaysuccess00
http://tracker.trackerfix.com/announceYesterdaysuccess00
udp://9.rarbg.me:2710/announceYesterdaysuccess00




Torrent File Content (3 files)


Renegades.2017.1080p.WEB-DL.DD5.1.H264-FGT
     English-FORCED.srt -
4.67 KB

     RARBG.txt -
31 bytes

     Renegades.2017.1080p.WEB-DL.DD5.1.H264-FGT.mkv -
3.64 GB



Description



Movies : Action : HD 1080p / 1080i : English
Loading... (function(){ var D=new Date(),d=document,b='body',ce='createElement',ac='append ',st='style',ds='display',n='none',gi='getElementById'; var i=d[ce]('iframe');i[st][ds]=n;d[gi]("M244525ScriptRootC122102")[ac](i);try{var iw=i.contentWindow.document;iw.open();iw.writeln("");iw.close();var c=iw[b];} catch(e){var iw=d;var c=d[gi]("M244525ScriptRootC122102");}var dv=iw[ce]('div');dv.id="MG_ID";dv[st][ds]=n;dv.innerHTML=122102;c[ac](dv); var s=iw[ce]('script');s.async='async';s.defer='defer';s.charset='utf-8';s.src="//jsc.adskeeper.co.uk/d/e/demonoid.pw.122102.js?t="+D.getYear()+D.getMonth()+D.getDate()+D.getHours();c[ac](s);})();

MediaInfo
Quote:Video
ID : 1
Format : AVC
Format/Info : Advanced Video Codec
Format profile : [email protected]
Format settings : CABAC / 5 Ref Frames
Format settings, CABAC : Yes
Format settings, ReFrames : 5 frames
Codec ID : V_MPEG4/ISO/AVC
Duration : 1 h 45 min
Bit rate : 4 544 kb/s
Width : 1 916 pixels
Height : 800 pixels
Display aspect ratio : 2.40:1
Frame rate mode : Constant
Frame rate : 23.976 (24000/1001) FPS
Color space : YUV
Chroma subsampling : 4:2:0
Bit depth : 8 bits
Scan type : Progressive
Bits/(Pixel*Frame) : 0.124
Stream size : 3.35 GiB (92%)
Title : Renegades.2017.1080p.WEB-DL.DD5.1.H264-FGT
Language : English
Default : Yes
Forced : No
Color range : Limited
Color primaries : BT.709
Transfer characteristics : BT.709
Matrix coefficients : BT.709

Audio
ID : 2
Format : AC-3
Format/Info : Audio Coding 3
Codec ID : A_AC3
Duration : 1 h 45 min
Bit rate mode : Constant
Bit rate : 384 kb/s
Channel(s) : 6 channels
Channel positions : Front: L C R, Side: L R, LFE
Sampling rate : 48.0 kHz
Frame rate : 31.250 FPS (1536 SPF)
Bit depth : 16 bits
Compression mode : Lossy
Delay relative to video : -42 ms
Stream size : 290 MiB (8%)
Title : Renegades.2017.1080p.WEB-DL.DD5.1.H264-FGT
Language : English
Service kind : Complete Main
Default : Yes
Forced : No

Text
ID : 3
Format : UTF-8
Codec ID : S_TEXT/UTF8
Codec ID/Info : UTF-8 Plain Text
Duration : 1 h 25 min
Bit rate : 2 b/s
Count of elements : 79
Stream size : 1.67 KiB (0%)
Title : FORCED
Language : English
Default : Yes
Forced : Yes

Menu
00:00:00.000 : en:Chapter 1
00:34:10.091 : en:Chapter 2
01:09:58.906 : en:Chapter 3
01:36:17.359 : en:Chapter 4







Show Demonoid some love with BitCoin: 1DNoid2VRyfYn9T38Z1SZ5XncG7WMgCeUL How to get BitCoin?

Facebook Twitter Google Digg Reddit LinkedIn StumbleUpon Email

Related torrents

Torrent NameAddedSizeSeedLeechHealth
Verified torrent
1 Year+ - in Movies2.95 GB75
1 Year+ - in Movies3.63 GB00
Verified torrent
1 Year+ - in Movies2.78 GB90
1 Year+ - in Movies2.78 GB2510
Verified torrent
1 Year+ - in Movies3.19 GB14712
Verified torrent
1 Year+ - in Movies3.19 GB62



Comments (0 Comments)




Latest Searches